#TITLE:I Love You;
#SUBTITLE:;
#ARTIST:8Eight;
#TITLETRANSLIT:I Love You;
#SUBTITLETRANSLIT:;
#ARTISTTRANSLIT:8Eight;
#CREDIT:Chu Nhat , 16-11-2008;
#BANNER:I Love You-bn.png;
#BACKGROUND:I Love You-bg.png;
#LYRICSPATH:;
#CDTITLE:pm4cd.png;
#MUSIC:I Love You.mp3;
#OFFSET:0.100;
#SAMPLESTART:74.160;
#SAMPLELENGTH:20.000;
#SELECTABLE:YES;
#BPMS:0.000=130.000;
#STOPS:;
#BGCHANGES:0.000=8eight - I Love You (feat.jessica).avi=1.000=0=0=1,
99999=-nosongbg-=1.000=0=0=0 // don't automatically add -songbackground-
;
// cache tags:
#FIRSTBEAT:1.000;
#LASTBEAT:469.000;
#SONGFILENAME:Songs/Music V.I.P ^_^/I Love You - 8Eight/I Love You.sm;
#HASMUSIC:1;
#HASBANNER:1;
#MUSICLENGTH:219.637;
// end cache tags

//---------------dance-single - ----------------
#NOTES:
     dance-single:
     :
     Hard:
     10:
     0.831,0.908,1.000,0.109,0.312,996.000,255.000,24.000,0.000,48.000:
0000
0000
1000
0010
0001
0100
1000
0100
,
0001
0010
1000
0100
0010
0001
0001
0010
,
0100
1000
0010
1000
0100
0001
0100
1000
,
0010
0001
0010
0100
1000
0010
0001
0100
,
1000
0010
0100
0001
1000
0010
0100
0001
,
1000
0010
0100
0001
1000
0010
0100
0001
,
1000
0100
0010
0100
1000
0100
0010
0001
,
0010
0000
1000
0000
0101
0000
0001
0010
0001
0000
1000
0100
1000
0000
0010
0100
,
1001
0100
0010
0001
1010
0000
0100
0000
0010
0000
0100
0000
0000
0000
0001
0000
,
0010
1000
0100
0001
0010
1000
0100
0010
,
0000
0001
0010
1000
0010
0100
0000
0001
,
0010
0100
1010
0000
0000
0000
0010
0000
,
1000
0010
0100
0001
0010
1000
0000
0000
,
0010
0100
1000
0001
0100
0010
1000
0010
,
0100
0001
0010
1000
0010
0100
0000
0010
,
1000
0100
1001
0000
0000
0000
0010
0100
,
1000
0010
0200
0000
0000
0000
0000
0000
,
0000
0302
0000
0000
,
0000
2003
0000
0000
,
0000
3020
0000
0000
,
0000
0000
0131
1000
0010
0100
0001
0010
,
0100
1000
0010
0100
0001
0010
1000
0010
,
0100
0001
0010
0100
0010
1000
0000
0010
,
0000
0000
0000
0000
1010
0000
0100
0100
0011
0000
1000
1000
0110
0000
1000
0000
,
0010
0100
1010
0010
0101
0100
0011
1000
,
1100
0001
0110
1000
0101
0010
1010
0100
,
0011
1000
0110
0001
1100
0010
0101
0010
,
0110
0001
1010
0100
0011
0010
1010
0100
,
0011
0010
1100
0010
0110
1000
0011
0010
,
1100
0100
0101
0010
1010
0100
1100
0010
,
0101
0010
0011
0100
0110
1000
0011
0001
,
1100
1000
0101
0010
1100
1000
0011
0001
,
1100
0010
0201
1000
0010
0001
0010
1000
,
0010
1000
0312
1000
0100
0010
0100
0010
,
1000
0100
2013
0001
0100
0010
0001
0100
,
0001
0010
3120
0001
1000
0100
0001
1000
,
0001
0100
1030
1000
0011
0001
0001
1100
,
0010
0010
1010
0100
0001
0010
1000
0100
,
0001
1000
0221
1000
0001
1000
0001
1000
,
0001
0000
1000
0000
1331
0000
1000
1000
0110
0000
0001
0001
1100
0000
0010
0010
,
0101
0000
0010
0000
0011
0000
0100
0100
1100
0000
0001
0001
0101
0000
0010
0010
,
1010
0000
0100
0100
0101
0000
1000
1000
1100
0000
0010
0010
0011
0000
1000
1000
,
1010
0000
0100
0100
0101
0000
0100
0100
1100
0000
0010
0010
0011
0000
0001
0001
,
0101
0000
1000
1000
1100
0000
0010
0010
0011
0000
0100
0100
0110
0000
0001
0001
,
0101
0000
0100
0100
1100
0000
0010
0010
0110
0000
0001
0001
0011
0000
0100
0100
,
1100
0000
0010
0010
1010
0000
0100
0100
0101
0000
0010
0010
0011
0000
0100
0100
,
0101
0000
0010
0010
0110
0000
1000
1000
1100
0000
0010
0010
0011
0000
0100
0100
,
0101
0000
1000
1000
1100
0000
0010
0000
0100
0000
0001
0000
1000
0000
0010
0000
,
0100
0001
1100
0010
0101
0010
0011
1000
,
0110
0100
1100
0010
1010
0100
0011
1000
,
0101
0010
1100
0001
0110
0010
1100
0001
,
0011
1000
0100
0001
1010
1000
0110
0001
,
0011
1000
0110
0100
0011
0010
1100
0010
,
0110
0001
0110
1000
0011
0100
1100
0001
,
0101
0010
1000
0010
0001
0100
1000
0100
,
0001
0010
1000
0100
0010
0001
0001
0010
,
0100
1000
0010
1000
0100
0001
0100
1000
,
0010
0001
0010
0100
1000
0010
0001
0100
,
1000
0010
0100
0001
1000
0010
0100
0001
,
1000
0010
0100
0001
1000
0010
0100
0001
,
1000
0100
0010
0100
1000
0100
0010
0001
,
0010
0000
1000
0000
0101
0000
0100
0010
0100
0000
0001
1000
0001
0000
0100
0010
,
1001
0010
0100
1000
0011
0000
0000
0000
1010
0000
0000
0000
0101
0000
0000
0000
,
0110
1100
0011
0101
,
1010
0011
0110
0101
,
0011
1010
0101
0110
,
1001
0000
1100
0010
0011
0100
1010
0010
,
0101
1100
0110
1001
,
1100
0000
1010
0100
0011
0100
1001
0010
,
1010
1001
0110
0011
,
1010
0000
0201
0010
1001
0010
1001
0010
,
1001
0010
1302
0100
1010
0100
1010
0100
,
1010
0100
2013
0100
0011
0100
0011
0100
,
0011
0100
3021
1000
0101
1000
0101
1000
,
0101
1000
0131
1010
0000
1010
0101
0000
,
0100
1000
0010
0100
0001
0010
1000
0010
,
0100
0001
0020
0100
0001
1000
0100
1000
,
0001
0000
0100
0000
1030
0000
0100
0100
0011
0000
1000
1000
0110
0000
1000
0000
,
0010
0100
1010
0010
0101
0100
0011
1000
,
1100
0001
0110
1000
0101
0010
1010
0100
,
0011
1000
0110
0001
1100
0010
0101
0010
,
0110
0001
1010
0100
0011
0010
1010
0100
,
0011
0010
1100
0010
0110
1000
0011
0010
,
1100
0100
0101
0010
1010
0100
1100
0010
,
0101
0010
0011
0100
0110
1000
0011
0001
,
1100
1000
0101
0010
1100
1000
0011
0001
,
1100
0010
0201
1000
0010
0001
0010
1000
,
0010
1000
0312
1000
0100
0010
0100
0010
,
1000
0100
2013
0001
0100
0010
0001
0100
,
0001
0010
3120
0001
1000
0100
0001
1000
,
0001
0100
1030
1000
0011
0001
0001
1100
,
0010
0010
1010
0100
0001
0010
1000
0100
,
0001
1000
0221
1000
0001
1000
0001
1000
,
0001
1000
1331
0000
0000
0000
0010
0000
,
0000
0000
0000
0000
1100
0001
0010
0100
1000
0100
0010
0001
0010
0100
1000
0100
,
0010
0001
0010
0100
0011
0000
0100
0100
1100
0000
0001
0001
0101
0000
0010
0010
,
1010
0000
0100
0100
0101
0000
1000
1000
1100
0000
0010
0010
0011
0000
1000
1000
,
1010
0000
0100
0100
0101
0000
0100
0100
1100
0000
0010
0010
0011
0000
0001
0001
,
0101
0000
1000
1000
1100
0000
0010
0010
0011
0000
0100
0100
0110
0000
0001
0001
,
0101
0000
0100
0100
1100
0000
0010
0010
0110
0000
0001
0001
0011
0000
0100
0100
,
1100
0000
0010
0010
1010
0000
0100
0100
0101
0000
0010
0010
0011
0000
0100
0100
,
0101
0000
0010
0010
0110
0000
1000
1000
1100
0000
0010
0010
0011
0000
0100
0100
,
0101
0000
1000
1000
1100
0000
0010
0000
0001
0000
1000
0000
0010
0000
0100
0000
,
0001
0000
0010
0000
1000
0010
0100
0001
0010
1000
0100
0001
0010
0100
1000
0100
,
0010
0100
0001
0010
1000
0010
0100
1000
0010
0001
0100
0010
0001
1000
0100
0010
,
0100
0001
0010
1000
0100
0001
0010
1000
0100
0001
0010
0100
0010
1000
0100
0010
,
0001
0010
1000
0100
0010
0100
0001
0010
1000
0010
0100
0001
0010
1000
0100
0001
,
0010
1000
0100
0010
0001
0010
0100
1000
0100
0001
0010
1000
0001
0100
0010
1000
,
0001
0100
0010
1000
0010
0100
0001
0010
0100
0001
1000
0100
0010
0100
0001
1000
,
0100
0001
0010
1000
0110
0000
0010
0000
1100
0000
0010
0000
0101
0000
0010
0000
,
1100
0010
0101
0010
0011
0100
1000
0010
,
0100
0001
1100
0010
0011
0100
1100
0010
,
0100
0001
0101
0010
0110
0001
0011
1000
,
1100
0010
2100
0011
0010
0110
0010
3101
,
0010
1000
0120
0001
0100
1000
0001
1030
,
0100
0010
0102
1100
0010
0110
0100
1010
,
0100
0000
1100
0000
0013
0100
1000
0100
0010
0001
0010
0100
1000
0100
0010
0001
,
0010
0100
1000
0100
0010
0000
0000
0000
0000
0000
0000
0000
0000
0000
0000
0000
;
